osu file format v14

[General]
AudioFilename: mini.mp3
AudioLeadIn: 1500
PreviewTime: 18883
Countdown: 0
SampleSet: Normal
StackLeniency: 0.7
Mode: 1
LetterboxInBreaks: 0
WidescreenStoryboard: 0

[Editor]
DistanceSpacing: 0.8
BeatDivisor: 4
GridSize: 16
TimelineZoom: 2

[Metadata]
Title:Miniministop Hitoyasumi no Uta[Mokuyoubi]Gakusei no Uta
TitleUnicode:ミニミニストップひとやすみの歌【木曜日】学生の歌
Artist:Unknown Artist
ArtistUnicode:Unknown Artist
Creator:Mame ga nyaa
Version:Muzukashii
Source:MINISTOP
Tags:chaica convenience store
BeatmapID:607945
BeatmapSetID:228647

[Difficulty]
HPDrainRate:7
CircleSize:5
OverallDifficulty:5
ApproachRate:5
SliderMultiplier:1.4
SliderTickRate:1

[Events]
//Background and Video events
0,0,"mimippu.jpg",0,0
//Break Periods
//Storyboard Layer 0 (Background)
//Storyboard Layer 1 (Fail)
//Storyboard Layer 2 (Pass)
//Storyboard Layer 3 (Foreground)
//Storyboard Sound Samples

[TimingPoints]
523,480,4,1,0,75,1,0
20683,480,4,1,0,75,1,1
31243,-100,4,1,0,75,0,0

[HitObjects]
192,128,523,5,8,0:0:0:0:
192,128,1003,1,0,0:0:0:0:
192,128,1483,1,8,0:0:0:0:
192,128,2443,1,8,0:0:0:0:
192,128,2923,1,0,0:0:0:0:
192,128,3403,1,8,0:0:0:0:
160,96,4363,5,0,0:0:0:0:
160,96,4843,1,0,0:0:0:0:
160,96,5323,1,8,0:0:0:0:
160,96,5563,1,8,0:0:0:0:
160,96,5803,1,8,0:0:0:0:
160,96,6283,1,0,0:0:0:0:
160,96,6763,1,8,0:0:0:0:
160,96,7243,1,0,0:0:0:0:
160,96,8203,1,8,0:0:0:0:
160,96,8683,1,0,0:0:0:0:
160,96,9163,1,8,0:0:0:0:
160,96,9403,1,8,0:0:0:0:
160,96,9643,1,0,0:0:0:0:
160,96,10123,1,0,0:0:0:0:
160,96,10603,1,0,0:0:0:0:
160,96,10843,1,0,0:0:0:0:
160,96,11083,1,8,0:0:0:0:
160,96,12043,1,8,0:0:0:0:
160,96,12523,1,0,0:0:0:0:
160,96,13003,1,8,0:0:0:0:
160,96,13483,1,8,0:0:0:0:
160,96,13723,1,8,0:0:0:0:
160,96,13963,1,0,0:0:0:0:
160,96,14443,1,0,0:0:0:0:
160,96,14683,1,0,0:0:0:0:
160,96,14923,1,8,0:0:0:0:
160,96,15883,1,0,0:0:0:0:
176,96,16363,1,8,0:0:0:0:
160,96,16843,5,0,0:0:0:0:
160,96,17083,1,8,0:0:0:0:
160,96,17323,1,8,0:0:0:0:
160,96,17563,1,0,0:0:0:0:
256,192,17803,12,0,18763,0:0:0:0:
128,112,19243,5,0,0:0:0:0:
128,112,19723,1,0,0:0:0:0:
128,112,20203,1,8,0:0:0:0:
128,112,20683,1,0,0:0:0:0:
128,112,20923,1,8,0:0:0:0:
128,112,21163,1,0,0:0:0:0:
128,112,21403,5,8,0:0:0:0:
128,112,21643,1,0,0:0:0:0:
128,112,21763,1,0,0:0:0:0:
128,96,21883,1,0,0:0:0:0:
112,112,22363,1,0,0:0:0:0:
128,112,22603,1,8,0:0:0:0:
128,112,22843,1,8,0:0:0:0:
128,112,23083,1,0,0:0:0:0:
128,112,23323,1,0,0:0:0:0:
128,112,23563,1,8,0:0:0:0:
128,112,24523,1,8,0:0:0:0:
128,112,25243,1,0,0:0:0:0:
128,112,25363,1,0,0:0:0:0:
128,112,25483,1,0,0:0:0:0:
128,112,25723,1,8,0:0:0:0:
128,112,25963,1,0,0:0:0:0:
128,112,26443,1,8,0:0:0:0:
128,112,26683,1,0,0:0:0:0:
128,112,26923,1,8,0:0:0:0:
128,112,27163,1,8,0:0:0:0:
128,112,27403,1,0,0:0:0:0:
128,112,28363,1,8,0:0:0:0:
128,112,28843,1,8,0:0:0:0:
128,112,29083,1,8,0:0:0:0:
128,112,29323,1,0,0:0:0:0:
128,112,29443,1,0,0:0:0:0:
336,288,29563,1,0,0:0:0:0:
128,112,29803,1,8,0:0:0:0:
128,112,30283,1,0,0:0:0:0:
128,112,30523,1,0,0:0:0:0:
128,112,30763,1,8,0:0:0:0:
128,112,31003,1,0,0:0:0:0:
128,112,31243,1,12,0:0:0:0:
